Untitled

mail@pastecode.io avatar
unknown
plain_text
a month ago
5.7 kB
1
Indexable
Never
General
Unique ID : 234108287775818506742064132637170327576 (0xB01F9DBD087E0884079E6C40EF23E018)
Complete name : One.Life.2023.1080p.BluRay.DD+5.1.x264-SPHD.mkv
Format : Matroska
Format version : Version 4
File size : 13.5 GiB
Duration : 1 h 49 min
Overall bit rate : 17.7 Mb/s
Frame rate : 24.000 FPS
Movie name : One Life (2023)
Encoded date : 2024-04-21 10:44:55 UTC
Writing application : mkvmerge v83.0 ('Circle Of Friends') 64-bit
Writing library : libebml v1.4.5 + libmatroska v1.7.1

Video
ID : 1
Format : AVC
Format/Info : Advanced Video Codec
Format profile : High@L4.1
Format settings : CABAC / 4 Ref Frames
Format settings, CABAC : Yes
Format settings, Reference frames : 4 frames
Codec ID : V_MPEG4/ISO/AVC
Duration : 1 h 49 min
Bit rate : 16.7 Mb/s
Width : 1 920 pixels
Height : 872 pixels
Display aspect ratio : 2.2:1
Frame rate mode : Constant
Frame rate : 24.000 FPS
Color space : YUV
Chroma subsampling : 4:2:0
Bit depth : 8 bits
Scan type : Progressive
Bits/(Pixel*Frame) : 0.415
Stream size : 12.7 GiB (94%)
Writing library : x264 core 164 r3172+8 d0a13eb [Mod by Patman]
Encoding settings : cabac=1 / ref=4 / deblock=1:-3:-3 / analyse=0x3:0x113 / me=umh / subme=11 / psy=1 / psy_rd=1.05:0.00 / mixed_ref=1 / me_range=48 / chroma_me=1 / trellis=2 / 8x8dct=1 / cqm=0 / deadzone=21,11 / fast_pskip=0 / chroma_qp_offset=-2 / threads=27 / lookahead_threads=6 / sliced_threads=0 / nr=0 / decimate=0 / interlaced=0 / bluray_compat=0 / constrained_intra=0 / bframes=12 / b_pyramid=2 / b_adapt=2 / b_bias=0 / direct=3 / weightb=1 / open_gop=0 / weightp=2 / keyint=250 / keyint_min=23 / scenecut=40 / intra_refresh=0 / rc_lookahead=60 / rc=crf / mbtree=0 / crf=17.8 / qcomp=0.60 / qpmin=0 / qpmax=69 / qpstep=4 / vbv_maxrate=62500 / vbv_bufsize=78125 / crf_max=0.0 / nal_hrd=none / filler=0 / ip_ratio=1.30 / pb_ratio=1.20 / aq=3:0.80:1.00
Default : Yes
Forced : No
Color range : Limited
Color primaries : BT.709
Transfer characteristics : BT.709
Matrix coefficients : BT.709

Audio
ID : 2
Format : E-AC-3
Format/Info : Enhanced AC-3
Commercial name : Dolby Digital Plus
Codec ID : A_EAC3
Duration : 1 h 49 min
Bit rate mode : Constant
Bit rate : 1 024 kb/s
Channel(s) : 6 channels
Channel layout : L R C LFE Ls Rs
Sampling rate : 48.0 kHz
Frame rate : 31.250 FPS (1536 SPF)
Compression mode : Lossy
Stream size : 799 MiB (6%)
Title : E-AC-3 5.1
Language : English
Service kind : Complete Main
Default : Yes
Forced : No

Text #1
ID : 3
Format : UTF-8
Codec ID : S_TEXT/UTF8
Codec ID/Info : UTF-8 Plain Text
Duration : 1 h 37 min
Bit rate : 59 b/s
Frame rate : 0.242 FPS
Count of elements : 1406
Stream size : 42.1 KiB (0%)
Title : English
Language : English
Default : No
Forced : No

Text #2
ID : 4
Format : UTF-8
Codec ID : S_TEXT/UTF8
Codec ID/Info : UTF-8 Plain Text
Duration : 1 h 47 min
Bit rate : 64 b/s
Frame rate : 0.261 FPS
Count of elements : 1684
Stream size : 51.0 KiB (0%)
Title : English (SDH)
Language : English
Default : No
Forced : No

Text #3
ID : 5
Format : UTF-8
Codec ID : S_TEXT/UTF8
Codec ID/Info : UTF-8 Plain Text
Duration : 1 h 37 min
Bit rate : 57 b/s
Frame rate : 0.243 FPS
Count of elements : 1417
Stream size : 41.1 KiB (0%)
Title : Danish
Language : Danish
Default : No
Forced : No

Text #4
ID : 6
Format : UTF-8
Codec ID : S_TEXT/UTF8
Codec ID/Info : UTF-8 Plain Text
Duration : 1 h 40 min
Bit rate : 64 b/s
Frame rate : 0.241 FPS
Count of elements : 1458
Stream size : 48.0 KiB (0%)
Title : Dutch
Language : Dutch
Default : No
Forced : No

Text #5
ID : 7
Format : UTF-8
Codec ID : S_TEXT/UTF8
Codec ID/Info : UTF-8 Plain Text
Duration : 1 h 41 min
Bit rate : 57 b/s
Frame rate : 0.218 FPS
Count of elements : 1321
Stream size : 42.7 KiB (0%)
Title : French
Language : French
Default : No
Forced : No

Text #6
ID : 8
Format : PGS
Codec ID : S_HDMV/PGS
Codec ID/Info : Picture based subtitle format used on BDs/HD-DVDs
Duration : 1 h 37 min
Bit rate : 30.0 kb/s
Frame rate : 0.396 FPS
Count of elements : 2306
Stream size : 20.8 MiB (0%)
Title : Italian
Language : Italian
Default : No
Forced : No

Text #7
ID : 9
Format : PGS
Codec ID : S_HDMV/PGS
Codec ID/Info : Picture based subtitle format used on BDs/HD-DVDs
Duration : 1 h 41 min
Bit rate : 37.3 kb/s
Frame rate : 0.440 FPS
Count of elements : 2666
Stream size : 26.9 MiB (0%)
Title : Romanian
Language : Romanian
Default : No
Forced : No

Text #8
ID : 10
Format : UTF-8
Codec ID : S_TEXT/UTF8
Codec ID/Info : UTF-8 Plain Text
Duration : 1 h 41 min
Bit rate : 60 b/s
Frame rate : 0.220 FPS
Count of elements : 1333
Stream size : 44.9 KiB (0%)
Title : Romanian
Language : Romanian
Default : No
Forced : No

Text #9
ID : 11
Format : UTF-8
Codec ID : S_TEXT/UTF8
Codec ID/Info : UTF-8 Plain Text
Duration : 1 h 43 min
Bit rate : 63 b/s
Frame rate : 0.236 FPS
Count of elements : 1459
Stream size : 47.6 KiB (0%)
Title : Spanish
Language : Spanish
Default : No
Forced : No

Text #10
ID : 12
Format : UTF-8
Codec ID : S_TEXT/UTF8
Codec ID/Info : UTF-8 Plain Text
Duration : 1 h 40 min
Bit rate : 60 b/s
Frame rate : 0.188 FPS
Count of elements : 1136
Stream size : 44.4 KiB (0%)
Title : Swedish
Language : Swedish
Default : No
Forced : No

Menu
00:00:00.000 : en:Chapter 01
00:07:06.333 : en:Chapter 02
00:18:01.667 : en:Chapter 03
00:25:47.625 : en:Chapter 04
00:35:31.417 : en:Chapter 05
00:44:17.500 : en:Chapter 06
00:52:29.583 : en:Chapter 07
01:01:42.625 : en:Chapter 08
01:10:53.667 : en:Chapter 09
01:21:56.792 : en:Chapter 10
01:29:25.708 : en:Chapter 11
01:37:42.958 : en:Chapter 12
Leave a Comment