Untitled

mail@pastecode.io avatar
unknown
plain_text
22 days ago
5.7 kB
2
Indexable
Never
[download] 100% of    1.40GiB in 00:08:16 at 2.89MiB/s
ffmpeg version 2023-11-22-git-0008e1c5d5-essentials_build-www.gyan.dev Copyright (c) 2000-2023 the FFmpeg developers
  built with gcc 12.2.0 (Rev10, Built by MSYS2 project)
  configuration: --enable-gpl --enable-version3 --enable-static --pkg-config=pkgconf --disable-w32threads --disable-autodetect --enable-fontconfig --enable-iconv --enable-gnutls --enable-libxml2 --enable-gmp --enable-bzlib --enable-lzma --enable-zlib --enable-libsrt --enable-libssh --enable-libzmq --enable-avisynth --enable-sdl2 --enable-libwebp --enable-libx264 --enable-libx265 --enable-libxvid --enable-libaom --enable-libopenjpeg --enable-libvpx --enable-mediafoundation --enable-libass --enable-libfreetype --enable-libfribidi --enable-libharfbuzz --enable-libvidstab --enable-libvmaf --enable-libzimg --enable-amf --enable-cuda-llvm --enable-cuvid --enable-ffnvcodec --enable-nvdec --enable-nvenc --enable-dxva2 --enable-d3d11va --enable-libvpl --enable-libgme --enable-libopenmpt --enable-libopencore-amrwb --enable-libmp3lame --enable-libtheora --enable-libvo-amrwbenc --enable-libgsm --enable-libopencore-amrnb --enable-libopus --enable-libspeex --enable-libvorbis --enable-librubberband
  libavutil      58. 32.100 / 58. 32.100
  libavcodec     60. 34.100 / 60. 34.100
  libavformat    60. 17.100 / 60. 17.100
  libavdevice    60.  4.100 / 60.  4.100
  libavfilter     9. 13.100 /  9. 13.100
  libswscale      7.  6.100 /  7.  6.100
  libswresample   4. 13.100 /  4. 13.100
  libpostproc    57.  4.100 / 57.  4.100
Input #0, mov,mp4,m4a,3gp,3g2,mj2, from 'dec_video=1297600-17111770435721805.mp4':
  Metadata:
    major_brand     : iso6
    minor_version   : 0
    compatible_brands: iso6dash
  Duration: 475326:57:13.01, start: 1711162033.008333, bitrate: 0 kb/s
  Stream #0:0[0x1](und): Video: h264 (Main) (avc1 / 0x31637661), yuv420p(progressive), 854x480 [SAR 3:4 DAR 427:320], 0 kb/s, 25 fps, 25 tbr, 600 tbn (default)
    Metadata:
      handler_name    : USP Video Handler
      vendor_id       : [0][0][0][0]
      encoder         : h264
Input #1, mov,mp4,m4a,3gp,3g2,mj2, from 'dec_audio_94482_hin=94000_17111770435721805.m4a':
  Metadata:
    major_brand     : iso6
    minor_version   : 0
    compatible_brands: iso6dash
  Duration: 475326:57:13.01, start: 1711162033.013313, bitrate: N/A
  Stream #1:0[0x1](hin): Audio: aac (LC) (mp4a / 0x6134706D), 48000 Hz, stereo, fltp, 0 kb/s (default)
    Metadata:
      handler_name    : USP Sound Handler
      vendor_id       : [0][0][0][0]
Input #2, mov,mp4,m4a,3gp,3g2,mj2, from 'dec_audio_94487_tam=94000_17111770435721805.m4a':
  Metadata:
    major_brand     : iso6
    minor_version   : 0
    compatible_brands: iso6dash
  Duration: 475326:57:13.01, start: 1711162033.013313, bitrate: N/A
  Stream #2:0[0x1](tam): Audio: aac (LC) (mp4a / 0x6134706D), 48000 Hz, stereo, fltp, 0 kb/s (default)
    Metadata:
      handler_name    : USP Sound Handler
      vendor_id       : [0][0][0][0]
Input #3, mov,mp4,m4a,3gp,3g2,mj2, from 'dec_audio_94489_tel=94000_17111770435721805.m4a':
  Metadata:
    major_brand     : iso6
    minor_version   : 0
    compatible_brands: iso6dash
  Duration: 475326:57:13.01, start: 1711162033.013313, bitrate: N/A
  Stream #3:0[0x1](tel): Audio: aac (LC) (mp4a / 0x6134706D), 48000 Hz, stereo, fltp, 0 kb/s (default)
    Metadata:
      handler_name    : USP Sound Handler
      vendor_id       : [0][0][0][0]
Input #4, mov,mp4,m4a,3gp,3g2,mj2, from 'dec_audio_94485_eng=94000_17111770435721805.m4a':
  Metadata:
    major_brand     : iso6
    minor_version   : 0
    compatible_brands: iso6dash
  Duration: 475326:57:13.01, start: 1711162033.013313, bitrate: N/A
  Stream #4:0[0x1](eng): Audio: aac (LC) (mp4a / 0x6134706D), 48000 Hz, stereo, fltp, 0 kb/s (default)
    Metadata:
      handler_name    : USP Sound Handler
      vendor_id       : [0][0][0][0]
Output #0, matroska, to '17111770435721805.mkv':
  Metadata:
    major_brand     : iso6
    minor_version   : 0
    compatible_brands: iso6dash
    encoded_by      : RC
    encoder         : Lavf60.17.100
  Stream #0:0(hin): Audio: aac (LC) ([255][0][0][0] / 0x00FF), 48000 Hz, stereo, fltp, 0 kb/s (default)
    Metadata:
      handler_name    : USP Sound Handler
      vendor_id       : [0][0][0][0]
      title           : RC
  Stream #0:1(tam): Audio: aac (LC) ([255][0][0][0] / 0x00FF), 48000 Hz, stereo, fltp, 0 kb/s (default)
    Metadata:
      handler_name    : USP Sound Handler
      vendor_id       : [0][0][0][0]
      title           : RC
  Stream #0:2(tel): Audio: aac (LC) ([255][0][0][0] / 0x00FF), 48000 Hz, stereo, fltp, 0 kb/s (default)
    Metadata:
      handler_name    : USP Sound Handler
      vendor_id       : [0][0][0][0]
      title           : RC
  Stream #0:3(eng): Audio: aac (LC) ([255][0][0][0] / 0x00FF), 48000 Hz, stereo, fltp, 0 kb/s (default)
    Metadata:
      handler_name    : USP Sound Handler
      vendor_id       : [0][0][0][0]
      title           : RC
  Stream #0:4(und): Video: h264 (Main) (avc1 / 0x31637661), yuv420p(progressive), 854x480 [SAR 3:4 DAR 427:320], q=2-31, 0 kb/s, 25 fps, 25 tbr, 1k tbn (default)
    Metadata:
      handler_name    : USP Video Handler
      vendor_id       : [0][0][0][0]
      encoder         : h264
      title           : RC
Stream mapping:
  Stream #1:0 -> #0:0 (copy)
  Stream #2:0 -> #0:1 (copy)
  Stream #3:0 -> #0:2 (copy)
  Stream #4:0 -> #0:3 (copy)
  Stream #0:0 -> #0:4 (copy)
Press [q] to stop, [?] for help
size=  840448kB time=01:47:28.08 bitrate=1067.8kbits/s speed= 560x
Leave a Comment