Untitled

mail@pastecode.io avatar
unknown
plain_text
2 years ago
7.0 kB
1
Indexable
Never
-enable-libzmq --enable-libzvbi --enable-lv2 --enable-omx --enable-openal --enable-opencl --enable-opengl --enable-sdl2 --enable-libdc1394 --enable-libdrm --enable-libiec61883 --enable-nvenc --enable-chromaprint --enable-frei0r --enable-libx264 --enable-shared
  libavutil      56. 31.100 / 56. 31.100
  libavcodec     58. 54.100 / 58. 54.100
  libavformat    58. 29.100 / 58. 29.100
  libavdevice    58.  8.100 / 58.  8.100
  libavfilter     7. 57.100 /  7. 57.100
  libavresample   4.  0.  0 /  4.  0.  0
  libswscale      5.  5.100 /  5.  5.100
  libswresample   3.  5.100 /  3.  5.100
  libpostproc    55.  5.100 / 55.  5.100
Input #0, mp3, from '/home/lap60733-local/Desktop/file_example_mp3_700kb_6574_1670321438367_output.mp3':
  Metadata:
    genre           : Cinematic
    album           : YouTube Audio Library
    title           : Impact Moderato
    artist          : Kevin MacLeod
    encoder         : Lavf59.6.100
  Duration: 00:00:27.24, start: 0.023021, bitrate: 128 kb/s
    Stream #0:0: Audio: mp3, 48000 Hz, stereo, fltp, 128 kb/s
    Metadata:
      encoder         : Lavc59.12
File '/data/apps/audio/2022/12/06/file_example_mp3_700kb_6574.mp3' already exists. Overwrite ? [y/N] y
Stream mapping:
  Stream #0:0 -> #0:0 (mp3 (mp3float) -> mp3 (libmp3lame))
Press [q] to stop, [?] for help
Output #0, mp3, to '/data/apps/audio/2022/12/06/file_example_mp3_700kb_6574.mp3':
  Metadata:
    TCON            : Cinematic
    TALB            : YouTube Audio Library
    TIT2            : Impact Moderato
    TPE1            : Kevin MacLeod
    TSSE            : Lavf58.29.100
    Stream #0:0: Audio: mp3 (libmp3lame), 48000 Hz, stereo, fltp
    Metadata:
      encoder         : Lavc58.54.100 libmp3lame
size=     426kB time=00:00:27.21 bitrate= 128.2kbits/s speed=22.2x    
video:0kB audio:426kB subtitle:0kB other streams:0kB global headers:0kB muxing overhead: 0.078699%
[Parsed_loudnorm_0 @ 0x55f7ee4e7b40] 
{
        "input_i" : "-14.58",
        "input_tp" : "-1.11",
        "input_lra" : "1.60",
        "input_thresh" : "-24.67",
        "output_i" : "-14.08",
        "output_tp" : "-1.00",
        "output_lra" : "1.70",
        "output_thresh" : "-24.18",
        "normalization_type" : "dynamic",
        "target_offset" : "0.08"
}
 lap60733-local@LAP60733  ~  cat abcde.json    
bitrate= 128.6kbits/s
total_size=165463
out_time_us=10296979
out_time_ms=10296979
out_time=00:00:10.296979
dup_frames=0
drop_frames=0
speed=20.6x
progress=continue
bitrate=  97.1kbits/s
total_size=262144
out_time_us=21600979
out_time_ms=21600979
out_time=00:00:21.600979
dup_frames=0
drop_frames=0
speed=21.5x
progress=continue
bitrate= 128.2kbits/s
total_size=436183
out_time_us=27216979
out_time_ms=27216979
out_time=00:00:27.216979
dup_frames=0
drop_frames=0
speed=22.2x
progress=end
 lap60733-local@LAP60733  ~  ffmpeg -i ~/Desktop/file_example_mp3_700kb_6574_1670321438367_output.mp3 -progress - -af loudnorm=I=-14:LRA=11:TP=-1:print_format=json /data/apps/audio/2022/12/06/file_example_mp3_700kb_6574.mp3             
ffmpeg version 4.2.7-0ubuntu0.1 Copyright (c) 2000-2022 the FFmpeg developers
  built with gcc 9 (Ubuntu 9.4.0-1ubuntu1~20.04.1)
  configuration: --prefix=/usr --extra-version=0ubuntu0.1 --toolchain=hardened --libdir=/usr/lib/x86_64-linux-gnu --incdir=/usr/include/x86_64-linux-gnu --arch=amd64 --enable-gpl --disable-stripping --enable-avresample --disable-filter=resample --enable-avisynth --enable-gnutls --enable-ladspa --enable-libaom --enable-libass --enable-libbluray --enable-libbs2b --enable-libcaca --enable-libcdio --enable-libcodec2 --enable-libflite --enable-libfontconfig --enable-libfreetype --enable-libfribidi --enable-libgme --enable-libgsm --enable-libjack --enable-libmp3lame --enable-libmysofa --enable-libopenjpeg --enable-libopenmpt --enable-libopus --enable-libpulse --enable-librsvg --enable-librubberband --enable-libshine --enable-libsnappy --enable-libsoxr --enable-libspeex --enable-libssh --enable-libtheora --enable-libtwolame --enable-libvidstab --enable-libvorbis --enable-libvpx --enable-libwavpack --enable-libwebp --enable-libx265 --enable-libxml2 --enable-libxvid --enable-libzmq --enable-libzvbi --enable-lv2 --enable-omx --enable-openal --enable-opencl --enable-opengl --enable-sdl2 --enable-libdc1394 --enable-libdrm --enable-libiec61883 --enable-nvenc --enable-chromaprint --enable-frei0r --enable-libx264 --enable-shared
  libavutil      56. 31.100 / 56. 31.100
  libavcodec     58. 54.100 / 58. 54.100
  libavformat    58. 29.100 / 58. 29.100
  libavdevice    58.  8.100 / 58.  8.100
  libavfilter     7. 57.100 /  7. 57.100
  libavresample   4.  0.  0 /  4.  0.  0
  libswscale      5.  5.100 /  5.  5.100
  libswresample   3.  5.100 /  3.  5.100
  libpostproc    55.  5.100 / 55.  5.100
Input #0, mp3, from '/home/lap60733-local/Desktop/file_example_mp3_700kb_6574_1670321438367_output.mp3':
  Metadata:
    genre           : Cinematic
    album           : YouTube Audio Library
    title           : Impact Moderato
    artist          : Kevin MacLeod
    encoder         : Lavf59.6.100
  Duration: 00:00:27.24, start: 0.023021, bitrate: 128 kb/s
    Stream #0:0: Audio: mp3, 48000 Hz, stereo, fltp, 128 kb/s
    Metadata:
      encoder         : Lavc59.12
File '/data/apps/audio/2022/12/06/file_example_mp3_700kb_6574.mp3' already exists. Overwrite ? [y/N] y
Stream mapping:
  Stream #0:0 -> #0:0 (mp3 (mp3float) -> mp3 (libmp3lame))
Press [q] to stop, [?] for help
Output #0, mp3, to '/data/apps/audio/2022/12/06/file_example_mp3_700kb_6574.mp3':
  Metadata:
    TCON            : Cinematic
    TALB            : YouTube Audio Library
    TIT2            : Impact Moderato
    TPE1            : Kevin MacLeod
    TSSE            : Lavf58.29.100
    Stream #0:0: Audio: mp3 (libmp3lame), 48000 Hz, stereo, fltp
    Metadata:
      encoder         : Lavc58.54.100 libmp3lame
bitrate= 128.5kbits/s00:00:10.39 bitrate= 128.5kbits/s speed=20.7x    
total_size=166999
out_time_us=10392979
out_time_ms=10392979
out_time=00:00:10.392979
dup_frames=0
drop_frames=0
speed=20.7x
progress=continue
bitrate=  97.1kbits/s00:00:21.60 bitrate=  97.1kbits/s speed=21.6x    
total_size=262144
out_time_us=21600979
out_time_ms=21600979
out_time=00:00:21.600979
dup_frames=0
drop_frames=0
speed=21.6x
progress=continue
size=     426kB time=00:00:27.21 bitrate= 128.2kbits/s speed=22.3x    
bitrate= 128.2kbits/s
total_size=436183
out_time_us=27216979
out_time_ms=27216979
out_time=00:00:27.216979
dup_frames=0
drop_frames=0
speed=22.3x
progress=end
video:0kB audio:426kB subtitle:0kB other streams:0kB global headers:0kB muxing overhead: 0.078699%
[Parsed_loudnorm_0 @ 0x55b18e358b40] 
{
        "input_i" : "-14.58",
        "input_tp" : "-1.11",
        "input_lra" : "1.60",
        "input_thresh" : "-24.67",
        "output_i" : "-14.08",
        "output_tp" : "-1.00",
        "output_lra" : "1.70",
        "output_thresh" : "-24.18",
        "normalization_type" : "dynamic",
        "target_offset" : "0.08"
}